WK綜合論壇, WK综合论坛

查看:219 回復:3 發表於 2021-7-30 00:07:49
本主題由 212love 於 2021-7-31 19:14 解除高亮
累計簽到:2141 天
連續簽到:4 天
發表於 2021-7-27 12:09:39 | 顯示全部樓層 |閱讀模式
VIP精品區,資源無限好賺金任務區,輕松賺金幣
加入VIP,享受高級特權宣傳賺金又升級,超級棒

飲料超人.Soda.Bros., 2021.[MKV / 9.05G] 國語 [2160p] [複製鏈接]

影視分享
分類: 電影
題材: 动画 
地區: 中港台 韓國 
語言: 國語 韩语 
格式: MKV 
年份: 2021
資源: BT资源
) @$ Y; h; O5 i
  t2 L: G( Z! ^6 ^& W) m  w# {
◎译  名 饮料超人 / 压力零 / Stress Zero / Soda Bros; s# D' R) T5 Q: Y/ T8 n2 Q
◎片  名 ???? ??' ?1 K2 m1 b( o7 m! y% p
◎年  代 2021: z5 `/ e% P3 L, E% V5 r
◎产  地 韩国 / 中国大陆
* ?' @& w  w; a: z- `◎类  别 动画3 l# ?' v) S0 I: F; \3 v
◎语  言 汉语普通话 / 韩语
* {# s" o' o$ i; }4 Z◎上映日期 2021-06-12(中国大陆) / 2021-02-03(韩国)" G8 {2 T! D& L* i" n
◎IMDb链接 https://www.imdb.com/title//
5 y9 D% s; m6 L- f' H8 l" M◎豆瓣链接 https://movie.douban.com/subject/35270903/) Z% e& e+ l' n& `- S6 w$ v# O
◎片  长 94分钟' }% P1 M7 `+ h, z
◎导  演 李大喜 Dae-hee Lee (id:1434388)
" w* m. l) j8 f- A3 b- t      赵明辉 (id:1440526)
' V& Q( E: {; O' O◎演  员 郝祥海 Xianghai Hao (id:1340968): M* s: d( _( x1 g4 k4 h' Z
      陈喆 Jie Chen (id:1360421)$ n+ r4 d* r8 u2 ~
      林强 Qiang Lin (id:1340112)1 R: _: `  [/ i8 T+ t9 ]6 y# `
      李轻扬 Qingyang Li (id:1410445)
+ W/ X2 \0 d: }: `7 a      郭政建 Zhengjian Guo (id:1325740)
3 T( o) T/ \; n0 |3 B6 u+ \( s      白雪岑 Xuecen Bai (id:1360429): [2 ^/ r& r8 h' Y& a  K
      张凯 Kai Zhang (id:1320631)
+ C, C: `# y1 g4 u5 |% U      赵铭洲 Mingzhou Zhao (id:1406075)
. `6 N1 f# ]1 S      阎么么 Meme Yan (id:1395143)& l3 `- A% _3 N/ O4 w
      瞳音 Cheng Xue (id:1385854)$ t& W2 P0 _9 C1 h$ ?& ]
      常蓉珊 Rongshan Chang (id:1409996)
& x3 H  f- q, J      房亚峰 (id:1457086)
6 k1 U$ w; _  f6 L5 X* m      徐亚辉 (id:1415386)0 q/ e! Q$ c% d' l
      高强 (id:1457194)
4 q% e& L3 i" J# K" e1 y      王红玲 (id:1447251)
7 W+ ?  l. M+ u      陈思 (id:1457195)8 D0 i1 r' F! v% t# @' S
      李大喜 Dae-hee Lee (id:1434388)0 H  a+ g/ F" w8 v
      谢飞 (id:1457196)
, S+ P) Y% [5 ]2 E6 B
" n1 s5 [( {4 d  N◎标  签 动画 / 韩国 / 科幻 / 儿童 / 2021 / 喜剧 / 动作 / 冒险
+ M4 O4 A  y& C% `, p
, O& ]: x) e; W5 ?! _◎简  介
' Z, s! o: Q8 e2 ?8 c, v' n2 _  城市突然出现火怪,普通职员大石头因此而失业,沮丧的他只好每天跟好朋友一起送快递,有一天竟然意外用朋友发明的饮料消灭了火怪,为了拯救家人和城市,他们化身饮料超人,成了对付火怪的超级英雄。
/ ~5 f+ j! P# [2 K1 x# }##### MediaInfo ######
6 F$ S) |' \8 y" _General
1 E2 z6 S" U( W8 @& V# zUnique ID : 288782865407352421702815722601419644639 (0xD9418E89E188527403D6650EEE381EDF)3 W8 p/ u/ e3 K( x5 A' v- @
Complete name : 饮料超人[email protected]
. n0 Y1 ^! A: P$ Q# [* ~0 gFormat : Matroska
$ _& T) l; |0 B9 X9 dFormat version : Version 4
/ S6 r! Z* P( ^) e6 B9 AFile size : 9.05 GiB
+ q: Y4 H# J+ O! m- D6 w  v& nDuration : 1 h 29 min* @8 P* k% j& o: D' b, U3 `
Overall bit rate : 14.5 Mb/s
2 a# |4 m8 U9 vEncoded date : UTC 2021-07-25 06:29:100 S- h. [/ r! s% {
Writing application : mkvmerge v51.0.0 ('I Wish') 64-bit
: K3 X0 N2 A" H8 m* |; E$ oWriting library : libebml v1.4.0 + libmatroska v1.6.2
$ g/ @; `: ^) m9 \" H- v5 Y. j" C8 R5 O) g/ F, l2 {6 F& R6 `; B6 X
Video
# E+ T% b; ]4 \$ u; q4 X# YID : 1
1 R6 `0 \( j- K! O4 XFormat : HEVC
7 ~4 R) b$ J+ B% X( G& B9 YFormat/Info : High Efficiency Video Coding
9 n5 I) |' X- `$ q# H. GFormat profile : [email protected]@Main
% }$ k0 \. J9 i5 I4 ~0 zCodec ID : V_MPEGH/ISO/HEVC
$ r' b: \5 f. j( m* v# WDuration : 1 h 29 min7 P/ ]7 V/ k9 `4 l
Bit rate : 14.3 Mb/s
6 V! I) }7 Q# l" q; E0 MWidth : 3 840 pixels
* t( |/ A  `% m9 x) cHeight : 2 072 pixels
% u  L4 ?4 {" Y+ \8 Q& EDisplay aspect ratio : 1.85:11 y. j: g! h* X( j% W
Frame rate mode : Constant
% i# ~- b1 ?6 u, U5 }Frame rate : 24.000 FPS
: Q" C1 b2 ~% f' Z, O% LColor space : YUV
, O5 K6 T. r. a% ^1 }) `Chroma subsampling : 4:2:0
) _) [6 V4 L2 IBit depth : 8 bits
# U* b% L+ X: E- j( _, F  n8 m4 @Bits/(Pixel*Frame) : 0.075
  j1 \" d# z% w% F! NStream size : 8.89 GiB (98%)$ R! c0 O, `/ w/ ]9 K
Default : Yes9 m+ j$ M9 h! z
Forced : No, g( t' \! N2 h
$ ^3 u. v7 c4 S% W! ~7 z# U/ T
Audio8 h3 {( D9 w: J7 @4 f
ID : 2
5 O8 {& r7 N$ ^! i0 SFormat : E-AC-3
- |) E# D: n6 [5 ?$ [Format/Info : Enhanced AC-3
) a" ?4 S7 i# G' D) T0 mCommercial name : Dolby Digital Plus- h+ s' A# q0 ]
Codec ID : A_EAC3
; l' V# p$ P, p% p$ K2 {! p, SDuration : 1 h 29 min5 P+ Y1 _- S/ z; Y- O  K8 U
Bit rate mode : Constant
8 z/ I$ K) X# I. h6 \: t* d( Q  ?Bit rate : 256 kb/s2 \5 V5 z: ]7 _% v- q4 w2 F
Channel(s) : 6 channels
0 y) r: l2 |" X. d9 E3 j, }1 QChannel layout : L R C LFE Ls Rs
1 S& o: }' I" h% A' SSampling rate : 48.0 kHz
" Z& C- }" s+ z8 I" \) [Frame rate : 31.250 FPS (1536 SPF)6 w# T4 K% C" e, Z2 D, \
Compression mode : Lossy5 V1 d3 p* O. D1 p, E
Stream size : 163 MiB (2%)& z& M0 c5 H+ H1 Z1 x
Service kind : Complete Main3 y* ?0 H% Z) @. _  u  i
Default : Yes; c! `7 A! Y3 X0 O5 t+ Z7 U$ T
Forced : No
飲料超人. MKV.torrent (27.29 KB, 下載次數: 19)
累計簽到:73 天
連續簽到:1 天
發表於 2021-7-27 12:16:55 | 顯示全部樓層
VIP精品區,資源無限好賺金任務區,輕松賺金幣
加入VIP,享受高級特權宣傳賺金又升級,超級棒
感謝大大的辛勞分享!我會繼續在WK關注大大的文章!
累計簽到:757 天
連續簽到:1 天
發表於 2021-7-28 21:47:56 | 顯示全部樓層
VIP精品區,資源無限好賺金任務區,輕松賺金幣
加入VIP,享受高級特權宣傳賺金又升級,超級棒
偶像^^小生一直都在關注你的原創!小生對你之仰慕如滔滔江水連綿不絕!
累計簽到:502 天
連續簽到:46 天
發表於 2021-7-30 00:07:49 | 顯示全部樓層
這個我收藏了!謝謝分享!WK的資源越來越豐富,這少不了大大的辛勞!

回復樓主 親!! 現在是淩晨!妳失眠啦?餓啦?通宵加班?還是想WK啦?

 分享同時學會感恩,一句感謝的話語,就是最大的支持!  歡迎交流討論
您需要登錄後才可以回帖 登錄 | 立即注册

本版積分規則

c重要聲明:本論壇是以即時上載言論的方式運作,WK論壇對所有言論的真實性、立場及版權等,不負任何法律責任。而一切言論只代表發佈者個人意見,並非本網站之立場,讀者及用戶務必自行判斷內容之真實性。 由於本論壇受到「即時上載言論」運作方式所規限,故不能完全監察所有言論,若讀者及用戶發現有內容出現「真實性、立場及版權」等問題,請聯絡我們:[email protected]論壇有權刪除任何言論(刪除前或不會作事先警告及通知)| SiteMap[網站地圖]

發表新帖 返回頂部