WK綜合論壇, WK综合论坛

查看:152 回復:1 發表於 2020-1-16 08:53:55
本主題由 212love 於 2020-1-17 09:14 解除高亮
累計簽到︰2053 天
連續簽到︰2 天
發表於 2020-1-15 09:02:14 | 顯示全部樓層 |閱讀模式
VIP精品區,資源無限好賺金任務區,輕松賺金幣
加入VIP,享受高級特權宣傳賺金又升級,超級棒

痛苦與榮耀 Pain.and.Glory., 2019.[MKV / 14.37G] [複製鏈接]

影視分享
分類: 電影
題材: 劇情 同性 
地區: 法國 其它 
語言: 其他 
格式: MKV 
年份: 2019
資源: BT资源
1.jpg 4 y  B, L, O0 {! a% R- h
( }% w2 l) s. B2 M1 D/ K
◎译  名 痛苦与荣耀 / Pain & Glory / 万千痛爱在一身(港)3 T* g+ Z' f9 q, X
◎片  名 Dolor y gloria4 x3 i/ V, ]# c. T
◎年  代 2019. ^2 g5 \: I' T/ o* r/ H  u, R
◎产  地 西班牙 / 法国4 t% ^) a* x" T8 j
◎类  别 剧情 / 同性
) c6 @6 O1 B& O◎语  言 西班牙语3 B: s% J3 v5 R0 |# v
◎上映日期 2019-03-13(马德里首映) / 2019-03-22(西班牙) / 2019-05-17(戛纳电影节); N; y( Y9 |/ J
◎IMDb评分 7.7/10 from 24128 users
" M) l% Z& P6 }; z$ h4 F& R& _: f8 U◎IMDb链接 https://www.imdb.com/title/tt82918068 c0 f7 ^  I4 u1 _' a
◎豆瓣评分 8.6/10 from 38732 users
- p6 Y; g5 S/ e- c1 Z2 x$ @& I' ?◎豆瓣链接 https://movie.douban.com/subject/30198539/: I* H" V. @5 q! S! I( L
◎片  长 113分钟; |5 A" R" L6 a& k) p3 b) ?
◎导  演 佩德罗·阿莫多瓦 Pedro Almodóvar
$ c* d6 `* R7 ?  c◎编  剧 佩德罗·阿莫多瓦 Pedro Almodóvar
& z# ], x- ~  b- ~◎主  演 安东尼奥·班德拉斯 Antonio Banderas" ]. g3 B$ ]& e+ u( ]
      阿谢尔·埃特塞安迪亚 Asier Etxeandia
* M- u( {+ E' v) k- X      莱昂纳多·斯巴拉格利亚 Leonardo Sbaraglia- \3 x& O, i3 g* {! A/ X1 S
      诺拉·纳瓦斯 Nora Navas
$ o/ S" k) r  y, h% s0 c      胡丽叶塔·塞拉诺 Julieta Serrano2 U( ]1 r  @! d! G0 [9 X3 S
      塞萨尔·文森特 César Vicente
" S4 Q8 c  W; V7 G- G1 _      阿瑟·弗洛雷斯 Asier Flores
7 c5 a1 R" s, D* Y9 v# t      佩内洛普·克鲁兹 Penélope Cruz
- D" ]3 r7 a/ ]      塞西莉亚·罗特 Cecilia Roth
- u% \1 V+ D) [      苏西·桑切斯 Susi Sánchez4 I0 R4 o1 u7 u$ h2 H, @
      劳尔·阿雷瓦洛 Raúl Arévalo, W/ V+ k  n; A5 f% y
      佩德罗·卡萨布兰科 Pedro Casablanc
. }6 j, L0 I- ?  o      朱利安·洛佩兹 Julián López$ r* X: ^: R: U" p( E* f3 Q
      伊娃·马丁 Eva Martín
5 p- Q; h3 Q2 C6 {: k; S      马里索尔·穆里尔 Marisol Muriel
; A$ P* f9 o5 Y' s% H0 z5 h. M1 Y# l      阿古斯丁·阿莫多瓦 Agustín Almodóvar. q) i0 u) k" V2 U
      沃伦·比蒂 Warren Beatty6 s- `5 e( U9 @  h  ~' X/ k
      埃丝特·加西亚 Esther García+ S1 F! p. n, l7 k3 F4 C+ p% f' k
      米娜 Mina
( D% d  o, f9 l  y9 {      玛丽莲·梦露 Marilyn Monroe
5 Z* J% H# z  t$ E6 Y      娜塔莉·伍德 Natalie Wood
5 I& `# S6 s6 g% w0 ~8 U
0 J9 t, m- B8 U1 {8 I9 K
5 V5 w) Y* g* t9 D◎标  签 西班牙 | 同性 | 2019 | 剧情 | 文艺 | 人生 | 传记 | 戛纳0 U' Q  Z  \$ N

( Q/ t9 X2 g' g% B5 ]: w+ B◎简  介
. f6 A0 w: k4 ?9 O! \4 {- L7 j$ F& n+ I7 C
  佩德罗·阿莫多瓦、安东尼奥·班德拉斯、佩内洛普·克鲁兹将合作新片《痛苦与荣耀》(Dolor y Gloria),7月上半月开拍。和阿莫多瓦上部影片《胡丽叶塔》相反,影片主角将是两名男性,由班德拉斯和阿谢尔·埃特塞安迪亚扮演,克鲁兹和胡丽叶塔·塞拉饰女配,讲述一个处于晚年的电影导演的生活故事,包含初恋、第二次恋爱、母亲、死亡、与他合作过的一些演员,时间跨越60、80年代和现在,一种不适应的空虚感导致他现在无法拍电影。
0 J1 p9 B' k1 A, n* O- X/ L+ Z: G8 o# O. L' G1 w
◎获奖情况
$ Y& Z6 O$ T4 X
- v/ t* Z9 e# ?% z  第72届戛纳电影节(2019)
8 }) C& w1 D- J) b9 W  主竞赛单元 金棕榈奖(提名) 佩德罗·阿莫多瓦1 X5 \- w6 @# h
  主竞赛单元 最佳男演员 安东尼奥·班德拉斯
/ F3 ^) E4 W% s( M! B  |  同志金棕榈奖(提名) 佩德罗·阿莫多瓦
$ g1 r4 r) m3 _* z+ V; e" H, V/ q' Q% C
  第77届金球奖(2020)
; j) R) H) l+ ^" ?. R5 u) C3 q  电影类 剧情片最佳男主角(提名) 安东尼奥·班德拉斯- v4 j+ G8 C$ T4 ^% w
  电影类 最佳外语片(提名)0 B. L  z9 z# G( Y( u
/ [/ _% z& `! D, i3 E
  第73届英国电影学院奖(2020)( ]! m2 y- i- ?- j( }
  电影奖 最佳非英语片(提名)$ |; g- t. L5 O( G5 V* t
- t4 O! m: L+ F0 d; |* _. X. s
  第32届欧洲电影奖(2019)# ^6 \; b, e( j3 m
  观众选择奖(提名)" {/ a3 K' @. |% H) N; a8 K! r
  最佳影片(提名)
: T* K  T  w" ^* H  最佳导演(提名) 佩德罗·阿莫多瓦
/ ~& E; L- k. @  最佳男主角 安东尼奥·班德拉斯* v7 k: w/ u$ [
  最佳编剧(提名) 佩德罗·阿莫多瓦8 C7 ]" g; l2 m" z9 C$ g
  最佳美术设计9 y5 w' Q1 a: @
/ B2 E% c8 I9 p- ~
  第34届西班牙戈雅奖(2020)
3 H# U: K5 ]% M7 n6 s  最佳影片(提名)
6 a2 f4 w( S. F3 l  最佳导演(提名) 佩德罗·阿莫多瓦
& G0 c8 r  {3 D, i, @$ k  最佳男主角(提名) 安东尼奥·班德拉斯
  |6 d' h& F$ k8 n8 |# X0 _- G- O$ ?  最佳女主角(提名) 佩内洛普·克鲁兹' o" C( o0 a7 y1 }& N& P/ _
  最佳男配角(提名) 阿谢尔·埃特塞安迪亚 / 莱昂纳多·斯巴拉格利亚# |1 c- s* t: Z( C" Z
  最佳女配角(提名) 胡丽叶塔·塞拉诺
+ a/ _4 E5 C# B: G8 p5 s2 X2 w  最佳原创剧本(提名) 佩德罗·阿莫多瓦0 x5 f. p+ i2 m  z0 a
  最佳摄影(提名)
# E* C2 s) D1 n  G: @  最佳剪辑(提名)/ e* B2 J" j4 `4 d& G
  最佳艺术指导(提名)
4 |' d- r2 l' ^$ {8 L; ?  最佳制作人(提名)% \4 a  B) Q  }6 K  ~
  最佳音效(提名)
' B* i3 T- |& p) [" W  最佳服装设计(提名)( E4 e3 B! }, ?' j% [9 W# J. j
  最佳化妆与发型(提名); {  D) l+ ?" ^
  最佳原创音乐(提名)
' s5 q) C3 u) E4 r6 b6 ]+ P
7 b  @5 i% E8 S3 E, u' ?  D  第85届纽约影评人协会奖(2019)
1 V" D, m4 P+ k  最佳男主角 安东尼奥·班德拉斯
1 S% i1 `8 `+ s' H+ }' V. `! z- g2 {; L
  第91届美国国家评论协会奖(2019); K+ `6 x* l7 I7 z, x; h
  五佳外语片8 b. ~; H2 J' h, ~8 x# j' g! T
2 {& a6 u1 T: y
  第25届美国评论家选择电影奖(2020)' e5 ~' Z& k9 {8 J2 `! F3 h4 ?1 I6 ^
  最佳男主角(提名) 安东尼奥·班德拉斯% q! k& z8 ~! M, k! i7 m
  最佳外语片(提名)2 \& S& h6 N0 n+ R1 T' [) [. z

3 ]/ {4 w, o' D, s  第24届金卫星奖(2020)
9 o: e" M9 C, D9 a5 ~$ g  电影部门 最佳导演(提名) 佩德罗·阿莫多瓦1 E* J4 |) v8 T& _2 C0 i
  电影部门 剧情片最佳男主角(提名) 安东尼奥·班德拉斯- F" L$ _5 C# |: Y' B4 K! X- T
  电影部门 最佳女配角(提名) 佩内洛普·克鲁兹  X& W; u9 W: Y: h
  电影部门 最佳外语片(提名)
( f4 z7 y. Z4 y& _& H+ E' y9 V0 R  电影部门 最佳原创剧本(提名) 佩德罗·阿莫多瓦
% R( I0 {5 T( }2 ?, ]: ]( o6 v. G& ]5 X5 ~0 j4 ~7 _! r4 n4 w3 }
  第23届好莱坞电影奖(2019); h  j1 b2 c$ q5 S& I3 R3 z! g* O
  年度男主角 安东尼奥·班德拉斯- [  Q) j8 y( D7 m

7 `5 Y' {$ X& B5 I& P0 g; G  第54届美国国家影评人协会奖(2020)
& O. S  ?. }& f  m# P7 {, k  最佳男主角 安东尼奥·班德拉斯
) W7 `9 M" h* z4 R* b8 s  X
/ h; A& y2 ^2 Q; {  第40届伦敦影评人协会奖(2020)& i3 a2 h  W. X( L
  年度电影(提名). u2 b' }+ r+ m6 V% H
  年度外语片(提名)
- f( Q2 @2 c, M. O  年度导演(提名) 佩德罗·阿莫多瓦- ~  o. S$ ?  O7 y& E
  年度编剧(提名) 佩德罗·阿莫多瓦  j; A/ V) E4 _, S) r" l
  年度男主角(提名) 安东尼奥·班德拉斯
9 a& e! f0 G4 D  [: J4 r
3 G! E# E0 u, \. N  第45届洛杉矶影评人协会奖(2019)
6 `2 q& Q8 L$ N& w) ^* }  W! u* K) R  最佳男主角 安东尼奥·班德拉斯! \* A" h& Y% E; S3 o
  最佳外语片$ z2 B/ K0 t) D5 q
/ g+ p$ t  B" Z) K1 H! S
  第32届芝加哥影评人协会奖(2019)
; d* I* l- d9 ]  最佳男主角(提名) 安东尼奥·班德拉斯
3 Q0 |4 U# b, x) K  最佳外语片(提名)5 b0 u0 _& t; q6 f4 Z1 l

* ?- e0 H" G) x+ O) d1 u+ }9 K  第4届亚特兰大影评人协会奖(2019)
, m& K7 ], k1 f7 E5 Z! f' k% |  十佳影片) C5 M0 {: z( X: i* q& q6 c
! n% m6 W  \2 C5 w( G: k
  第23届美国在线影评人协会奖(2020)- w1 H2 G2 ~' c% v2 {5 H5 b
  最佳男主角(提名) 安东尼奥·班德拉斯( h. W; p" U  }
  最佳非英语片(提名)3 f" |% D0 s1 H# n, K* a( u

0 ?$ P8 x' ?4 n% p/ {  第6届豆瓣电影年度榜单(2019)0 W$ b6 \9 ?& {/ \$ B' w6 \
  年度冷门佳片(提名)! i' [1 _* ?+ Q+ X" |! u4 Y8 X
  年度LGBT电影(提名)# C0 e! Q) X9 J4 |# h/ {0 T0 {
Video) C& o3 H# ]4 F1 L
ID : 1
9 l  k" T; ^. b: X' k# @Format : AVC$ V$ R( v  M7 `3 T; t4 y/ f
Format/Info : Advanced Video Codec* Z$ n6 [2 W& k+ p# U0 e3 [
Format profile : [email protected]5 O$ X' S$ u# ^3 d) j
Format settings : CABAC / 4 Ref Frames0 p/ ~# B  i, I- k4 w8 h
Format settings, CABAC : Yes
5 L" h7 K" C0 b% k' oFormat settings, Reference frames : 4 frames
, [, I% t$ Z. A; S( E5 LCodec ID : V_MPEG4/ISO/AVC( |& r, e$ G; N; i
Duration : 1 h 53 min" f* l. x4 S2 X" t) M1 V0 Z
Bit rate : 16.2 Mb/s
$ _+ B5 {0 N5 `* x6 |+ n3 CWidth : 1 920 pixels7 i( \  z+ ~5 ?  d( Z0 h
Height : 1 038 pixels8 H( i/ l- q8 w! n" S
Display aspect ratio : 1.85:1( H5 \# @. _4 o5 Y2 ~; h- K# {; Z0 e* o
Frame rate mode : Constant- Z: ~' a( P9 h0 [1 l1 u3 i" Z
Frame rate : 23.976 (24000/1001) FPS
- G' W9 N$ w; f, x1 pColor space : YUV
: V9 o5 K- r! OChroma subsampling : 4:2:0
- [# X% V1 r+ n# V: _Bit depth : 8 bits- Q# u" X& L9 ]: o
Scan type : Progressive+ p* {: w. T" T4 Y2 Z9 n
Bits/(Pixel*Frame) : 0.339
$ o1 k# O" m* \- k4 sStream size : 12.9 GiB (89%)
6 F" Y1 i7 Y7 LLanguage : Spanish7 z+ b: f4 d3 E
Default : Yes6 X" |7 R0 T* o
Forced : No1 r* H8 P) {$ [  l- [) I
  W: D, X) H+ Y5 a) e' k; A! w  k5 k2 w
Audio; K- e) C: p) b" J
ID : 2
+ N; S4 r/ J% K$ YFormat : DTS XLL+ _5 v1 C, ^4 Y/ g/ \3 H
Format/Info : Digital Theater Systems# b6 F+ P4 o& l8 h* Y1 f" D, @
Commercial name : DTS-HD Master Audio# b  G* [- B# ?. M) U1 l/ C8 G! ~
Codec ID : A_DTS7 Q6 P: g" b! ~" C' J4 g: }/ M4 u- L
Duration : 1 h 53 min
; m( I0 e. Z7 Z4 M0 x) b# V: j: mBit rate mode : Variable
( p- F9 A$ M4 ~0 EBit rate : 1 902 kb/s
( |+ a5 |2 S3 k! GChannel(s) : 6 channels8 l  }# n$ B  Y
Channel layout : C L R Ls Rs LFE6 f4 ~% L, J4 n  B7 U, j8 |
Sampling rate : 48.0 kHz7 Q; T4 P9 W, ]. ], P
Frame rate : 93.750 FPS (512 SPF)
9 e$ Y2 g& p. `9 Q6 s, T, |5 wBit depth : 24 bits
, r' X' F" P6 m# Y) r  [Compression mode : Lossless0 A2 M# y/ {; m1 S6 b8 F
Stream size : 1.51 GiB (10%)
5 k$ J5 H" t. J8 ~+ kLanguage : Spanish
. @0 p8 N& c  @Default : Yes
. y, h5 k( j* `/ `Forced : No% a# _% x2 W1 E# c! |8 P, E
1 I, ]1 S- Y) `; V
Text. V$ C) ]# M# g& S
ID : 3+ I2 k( ]7 B$ x0 K, C) J
Format : UTF-8
! Y4 Y; j& I& v  k4 R" b% ]7 j2 ]Codec ID : S_TEXT/UTF8+ X; u1 H" h  v$ d2 t+ L' D
Codec ID/Info : UTF-8 Plain Text7 D! G" p1 l! [: h- P) w
Duration : 1 h 46 min
; d7 w, W2 C; ^- j  M: u6 N3 ^Bit rate : 63 b/s4 n- q( {0 C* z1 U; s# h
Count of elements : 1412( g; s- s  x5 O* {$ n
Stream size : 49.5 KiB (0%)% Q/ w/ i, b0 |
Language : English
  {$ G3 ~: d" t9 l: X# _Default : Yes
( Q' f1 S8 L  H& {# G9 {Forced : No

) R& {1 l, L$ {" v- a
; S/ c: r( A& t; t- `' F3 v3 J3 f& U5 d) w# e

快遞員. MKV.torrent

65.35 KB, 下載次數: 4

累計簽到︰281 天
連續簽到︰10 天
發表於 2020-1-16 08:53:55 | 顯示全部樓層
VIP精品區,資源無限好賺金任務區,輕松賺金幣
加入VIP,享受高級特權宣傳賺金又升級,超級棒
感謝大大的辛勞分享!我會繼續在WK關注大大的文章!

回復樓主 親!! 現在是淩晨!妳失眠啦?餓啦?通宵加班?還是想WK啦?

 分享同時學會感恩,一句感謝的話語,就是最大的支持!  歡迎交流討論
您需要登錄後才可以回帖 登錄 | 立即注册

本版積分規則

c重要聲明:本論壇是以即時上載言論的方式運作,WK論壇對所有言論的真實性、立場及版權等,不負任何法律責任。而一切言論只代表發佈者個人意見,並非本網站之立場,讀者及用戶務必自行判斷內容之真實性。 由於本論壇受到「即時上載言論」運作方式所規限,故不能完全監察所有言論,若讀者及用戶發現有內容出現「真實性、立場及版權」等問題,請聯絡我們:[email protected]論壇有權刪除任何言論(刪除前或不會作事先警告及通知)| SiteMap[網站地圖]

發表新帖 返回頂部