WK綜合論壇, WK综合论坛

查看:47 回復:1 發表於 2020-1-16 08:53:55
本主題由 212love 於 2020-1-17 09:14 解除高亮
累計簽到︰1888 天
連續簽到︰1 天
發表於 2020-1-15 09:02:14 | 顯示全部樓層 |閱讀模式
VIP精品區,資源無限好賺金任務區,輕松賺金幣
加入VIP,享受高級特權宣傳賺金又升級,超級棒

痛苦與榮耀 Pain.and.Glory., 2019.[MKV / 14.37G] [複製鏈接]

影視分享
分類: 電影
題材: 劇情 同性 
地區: 法國 其它 
語言: 其他 
格式: MKV 
年份: 2019
資源: BT资源
1.jpg
6 S1 E$ M1 x4 T0 d$ l% j, A- }. L0 f  U5 x
◎译  名 痛苦与荣耀 / Pain & Glory / 万千痛爱在一身(港)* R2 s9 E" s1 ]% X
◎片  名 Dolor y gloria
( Z. s" f" t: D2 r. r5 o* G+ X◎年  代 2019$ p7 w8 u& H( z. R, X
◎产  地 西班牙 / 法国! Z# o, b6 e9 z- l  x4 @
◎类  别 剧情 / 同性& n1 m3 E4 E8 b0 f
◎语  言 西班牙语' q( L' }( T  o. `" \
◎上映日期 2019-03-13(马德里首映) / 2019-03-22(西班牙) / 2019-05-17(戛纳电影节)8 O0 E+ A* O4 ^
◎IMDb评分 7.7/10 from 24128 users
* ]# B4 _" A7 e0 [◎IMDb链接 https://www.imdb.com/title/tt8291806
8 A5 Y  Y6 a) m6 s% o◎豆瓣评分 8.6/10 from 38732 users  B$ }; j) {+ O4 X" e
◎豆瓣链接 https://movie.douban.com/subject/30198539/8 Y6 n6 c3 X# T5 f( }% M* v
◎片  长 113分钟
3 e; d5 G% ~. c. U% R9 R* a0 ?◎导  演 佩德罗·阿莫多瓦 Pedro Almodóvar
+ i& I' ]' k  L: Z$ j* y" J# V9 ^◎编  剧 佩德罗·阿莫多瓦 Pedro Almodóvar
( H  {( z0 Z4 }$ w) H2 u  y◎主  演 安东尼奥·班德拉斯 Antonio Banderas) w9 o! m5 t' L( z
      阿谢尔·埃特塞安迪亚 Asier Etxeandia* k4 H0 D$ C% p% G' N3 I. Q- @
      莱昂纳多·斯巴拉格利亚 Leonardo Sbaraglia
$ x1 l+ p$ Z- v2 o      诺拉·纳瓦斯 Nora Navas
" ?3 p7 }( j2 F2 l6 u% R2 P      胡丽叶塔·塞拉诺 Julieta Serrano$ l  S" C  t. N+ O. u* I
      塞萨尔·文森特 César Vicente
2 a5 a2 h6 \( \* U! N      阿瑟·弗洛雷斯 Asier Flores" [( t; c( d5 z- V3 U4 \1 d/ a2 b
      佩内洛普·克鲁兹 Penélope Cruz' R; M$ k9 l6 A% G* l
      塞西莉亚·罗特 Cecilia Roth
/ q9 K; @1 E2 ^" h+ G  _      苏西·桑切斯 Susi Sánchez
5 D, |9 X3 G% M0 t& f) ]) ~, M7 {9 k( C      劳尔·阿雷瓦洛 Raúl Arévalo3 E& U, z+ O  y
      佩德罗·卡萨布兰科 Pedro Casablanc5 b1 Z* J! S3 m, D1 g( u) Q. E
      朱利安·洛佩兹 Julián López: T: y2 Y" R& A
      伊娃·马丁 Eva Martín4 W# B" @' C( x8 e! ?
      马里索尔·穆里尔 Marisol Muriel
5 y) O5 V( N( q      阿古斯丁·阿莫多瓦 Agustín Almodóvar, {( C( ^+ w/ _9 U% g" B
      沃伦·比蒂 Warren Beatty
( e5 P& P$ L3 S5 k4 t      埃丝特·加西亚 Esther García
4 F! h7 e% c# M      米娜 Mina/ o' }( B- e" {% ?. {+ P* M6 M' d
      玛丽莲·梦露 Marilyn Monroe8 S6 B5 x/ Z- i2 J4 W# F
      娜塔莉·伍德 Natalie Wood
) w* Y8 P, ^# }5 f! w% r
" ]7 \0 ]* `3 G  p, {; ]) o. @+ ?; F: Z- S- w3 x* w
◎标  签 西班牙 | 同性 | 2019 | 剧情 | 文艺 | 人生 | 传记 | 戛纳
  @& R5 ^+ m9 s0 v  m  f0 }1 E; e+ Q" h) s  T, o5 a* l
◎简  介
- G9 F! c5 R) I* n5 T* Y0 i) o7 N$ c  Z
  佩德罗·阿莫多瓦、安东尼奥·班德拉斯、佩内洛普·克鲁兹将合作新片《痛苦与荣耀》(Dolor y Gloria),7月上半月开拍。和阿莫多瓦上部影片《胡丽叶塔》相反,影片主角将是两名男性,由班德拉斯和阿谢尔·埃特塞安迪亚扮演,克鲁兹和胡丽叶塔·塞拉饰女配,讲述一个处于晚年的电影导演的生活故事,包含初恋、第二次恋爱、母亲、死亡、与他合作过的一些演员,时间跨越60、80年代和现在,一种不适应的空虚感导致他现在无法拍电影。/ h+ S' ?" K, d1 [6 V& i
  |- g( J6 H7 p6 \; c4 p
◎获奖情况
$ N* p7 E& \) `$ F! j" V/ P  a: J
! R7 ^4 ?" I3 j2 ^; K' M; I  第72届戛纳电影节(2019)
; K+ z$ \- p; ]7 u" w; t% f: v+ y' Y  主竞赛单元 金棕榈奖(提名) 佩德罗·阿莫多瓦
0 G. s, ^  l* ?8 n7 T  P) X  主竞赛单元 最佳男演员 安东尼奥·班德拉斯
. v) X5 J: m1 |  同志金棕榈奖(提名) 佩德罗·阿莫多瓦
; A. _1 M* g* P) B
! ?0 y5 J: v6 o9 w+ `  第77届金球奖(2020); {; A$ l( j6 b' K0 J
  电影类 剧情片最佳男主角(提名) 安东尼奥·班德拉斯
: F. Z8 W8 ^4 E  电影类 最佳外语片(提名)
( A9 M) i; S  h" o) U0 m( g4 ~3 b8 {0 h; |+ k- l; [
  第73届英国电影学院奖(2020)
+ A+ D1 I: v  O+ C9 H# P* w  电影奖 最佳非英语片(提名)
# C8 }9 Y6 w4 h' ]+ U  \4 L/ Y
& z1 a/ V& x0 Z/ g9 G. `  第32届欧洲电影奖(2019)
. V- E  R- B+ u  观众选择奖(提名)4 x: w7 }( F& q9 d5 k2 y
  最佳影片(提名)  ~: F9 d! S/ o
  最佳导演(提名) 佩德罗·阿莫多瓦
1 s& p+ |  o( K$ _  C) s2 ?5 x  最佳男主角 安东尼奥·班德拉斯; z1 y5 [$ M7 A+ ^+ \7 F
  最佳编剧(提名) 佩德罗·阿莫多瓦
; P( a" H& x5 M; f  最佳美术设计
, L. B8 j4 K0 B: w1 {2 b9 _! ?. i. I; S
  第34届西班牙戈雅奖(2020)
& v4 e( ^; f) P8 ^5 |* f& U1 Z  最佳影片(提名)" L" ]: r- ?) g" c) S! ?
  最佳导演(提名) 佩德罗·阿莫多瓦
( c; C& s# J6 ]  最佳男主角(提名) 安东尼奥·班德拉斯! F1 z1 G9 C3 E* }0 V# g) N) B
  最佳女主角(提名) 佩内洛普·克鲁兹- N- z# z. Y) i4 V, {$ C, p
  最佳男配角(提名) 阿谢尔·埃特塞安迪亚 / 莱昂纳多·斯巴拉格利亚: v! D  W( I6 g# p# l  k6 |
  最佳女配角(提名) 胡丽叶塔·塞拉诺. M9 {* v& t* k# a" q
  最佳原创剧本(提名) 佩德罗·阿莫多瓦6 C1 Z% b% V- |' H9 i4 m
  最佳摄影(提名)7 _$ \( L- j6 F: `1 B
  最佳剪辑(提名)$ X+ G( W9 Y( g) ?: L! V3 g
  最佳艺术指导(提名)# X( Q2 s! i% ~+ ]7 [! g% N  Z
  最佳制作人(提名)
& a1 t5 o$ B' ^4 m& d  最佳音效(提名)) L1 Z8 t4 g2 w# g
  最佳服装设计(提名); I: i/ I5 h( |/ d, M
  最佳化妆与发型(提名)
" n% H+ @: v, j3 ]5 s7 J$ \  最佳原创音乐(提名); w3 {* A5 ~* a' \) S3 j# c
& I. Y6 ]9 Q5 ~+ A
  第85届纽约影评人协会奖(2019)
( u, c! B1 S9 {7 `  最佳男主角 安东尼奥·班德拉斯
  r8 K/ {0 i$ m& c: H& c0 \4 T: V2 B& ?8 U6 }& h# R5 C& R3 k% i# V
  第91届美国国家评论协会奖(2019)2 B# x7 W+ B; y( s/ D
  五佳外语片& P  _+ o/ n) t: r7 z
% ]/ R4 o- h( ~! ]9 r, X
  第25届美国评论家选择电影奖(2020)
1 a3 w1 |# U, L- B4 q: X) r) x  P; X  最佳男主角(提名) 安东尼奥·班德拉斯6 U* {% e! u4 R5 M
  最佳外语片(提名)
( I0 m/ ]. c' g3 _+ Q; }% J
3 S5 m' T) {' A4 a) y6 x  第24届金卫星奖(2020)
; _3 ~7 h. H" b; N( y' Y) J  电影部门 最佳导演(提名) 佩德罗·阿莫多瓦4 e. X: i# A1 y* D2 {
  电影部门 剧情片最佳男主角(提名) 安东尼奥·班德拉斯
) [. m4 H8 P4 M; S5 r. R1 Z  电影部门 最佳女配角(提名) 佩内洛普·克鲁兹
3 |  B. j0 }+ y% E% n  电影部门 最佳外语片(提名); Q" r2 `, \! F+ `7 `
  电影部门 最佳原创剧本(提名) 佩德罗·阿莫多瓦
& e. a6 i& E+ B- M
1 l: Q: b* Y4 W( p0 L3 d  第23届好莱坞电影奖(2019)6 A/ _% o0 q' k, ?/ j2 N/ t, ~8 Y0 K
  年度男主角 安东尼奥·班德拉斯- `$ ^' I" d% t# \) F& P
" Y3 [6 o5 z7 n" ?, Z4 J
  第54届美国国家影评人协会奖(2020)6 ^4 u0 f; E6 c5 S
  最佳男主角 安东尼奥·班德拉斯+ D; c: f3 l( p2 L  K
  x. a9 T  Q9 x, ]4 p
  第40届伦敦影评人协会奖(2020)5 }% c3 b, B9 l4 h) X8 r
  年度电影(提名)
0 x3 k9 I7 L9 L/ D  年度外语片(提名)$ z: `4 t/ Z( p% q4 u
  年度导演(提名) 佩德罗·阿莫多瓦
& H+ z7 j$ F3 M* o  年度编剧(提名) 佩德罗·阿莫多瓦
, r6 ~0 V% M8 L% N3 h8 x  年度男主角(提名) 安东尼奥·班德拉斯
0 ^: P3 \0 E/ S+ D- c1 I
% v. V/ V0 ^! Q0 R1 o$ h7 S7 a) [  第45届洛杉矶影评人协会奖(2019)
+ [! f: |+ s0 u2 d  最佳男主角 安东尼奥·班德拉斯& ?& f1 M# d" ~* K3 V* p8 _
  最佳外语片
) M/ K# g: i7 H" k' i! q$ S4 D6 [
  第32届芝加哥影评人协会奖(2019)
; O6 p  N! c6 x. B  z' P  最佳男主角(提名) 安东尼奥·班德拉斯
/ r! H& S6 |( w9 Z" }5 y( H' W3 y  最佳外语片(提名)" g& |) F9 j7 f! E
" I1 y/ \/ H+ [
  第4届亚特兰大影评人协会奖(2019)
( x7 r% [- j4 c: I  E  十佳影片3 \3 X) x8 K1 J' S* ~1 R4 }

2 e+ U; g- D$ l/ L  第23届美国在线影评人协会奖(2020)
9 f# o  K7 U' i$ u3 f; W9 K  最佳男主角(提名) 安东尼奥·班德拉斯
- ~( d  F3 v8 g( N+ f& T6 U7 C7 z/ o- D  最佳非英语片(提名)
1 S3 \$ W' u5 ^4 l; U1 I/ A
# L% k% a1 V* b6 c8 h" C) W, ^/ f  第6届豆瓣电影年度榜单(2019), l: M5 c( m' B4 q' s. w
  年度冷门佳片(提名)# ~' z. n! n4 T
  年度LGBT电影(提名)& s4 U( m& U$ o
Video+ C* |) Y% g2 l/ h  ^$ h
ID : 1) z+ T5 v4 u+ b1 j( c9 a; P
Format : AVC) o, Q( {2 P9 j
Format/Info : Advanced Video Codec
# g  a8 E" ^$ F% b8 Y" x3 OFormat profile : High@L4.1
% {1 E! I3 T! W( T! C' hFormat settings : CABAC / 4 Ref Frames0 d( d/ }5 `; }7 H0 g0 B5 `% J
Format settings, CABAC : Yes
1 g5 ]  o3 s) ~- }. [! yFormat settings, Reference frames : 4 frames8 B2 Q3 _' K% D/ y. E
Codec ID : V_MPEG4/ISO/AVC6 S0 g1 a; e; f# C7 I8 D3 B& T: N
Duration : 1 h 53 min: q7 Y" W3 L1 q% v
Bit rate : 16.2 Mb/s
1 X0 w( |' f) S3 K1 S% H3 T9 b' Y$ `Width : 1 920 pixels
. A2 e, m0 A9 F5 GHeight : 1 038 pixels9 ~" e' P# c" Z  ]# s
Display aspect ratio : 1.85:1
; r7 R: N4 U+ UFrame rate mode : Constant
1 L$ k) L4 p0 N% PFrame rate : 23.976 (24000/1001) FPS
4 M# H4 `- Y& ?' z3 ~% jColor space : YUV* W7 K' G# C  b. h( T
Chroma subsampling : 4:2:0
8 h. e& q: r, M* \5 LBit depth : 8 bits3 ]' h6 x) _1 A  w
Scan type : Progressive3 h9 C9 c" z$ t- d8 I& t, d
Bits/(Pixel*Frame) : 0.339; |4 U% S) K4 Z* r( s* `5 u
Stream size : 12.9 GiB (89%)$ Q6 T. W7 e  [* i5 G9 V
Language : Spanish
1 j8 {% Z8 W' HDefault : Yes
! E5 H! r4 ^* l& h* g/ ?: E0 c7 ]Forced : No
5 d" ~0 d1 a6 w4 U3 Q- s1 t: a( R: J5 z
Audio2 V7 U+ P( D! V/ g6 ^
ID : 2
5 ?% `/ P* x8 J; F2 N/ ]+ h& i' CFormat : DTS XLL2 r8 Y" O# g) _$ L! z' F* Y9 t
Format/Info : Digital Theater Systems
/ F$ v9 K& M( N- y: ]Commercial name : DTS-HD Master Audio! j, i: J+ y  j9 L# r
Codec ID : A_DTS8 Q3 g" I& I$ g* O9 U8 k, A
Duration : 1 h 53 min
* Y  U# e. J- U" L5 hBit rate mode : Variable9 w8 S, a4 D/ D; i4 e; u
Bit rate : 1 902 kb/s
1 |4 b3 y+ F. k: pChannel(s) : 6 channels
* w% z8 s, g9 X/ f# C9 @& ^Channel layout : C L R Ls Rs LFE
$ S# x0 A5 e2 N6 Z% \+ fSampling rate : 48.0 kHz9 z  S6 i" I- G3 q% P: B& z& s& v
Frame rate : 93.750 FPS (512 SPF)
4 b! A' Q3 K! W1 o0 E8 L9 f" ^% r! j% GBit depth : 24 bits
: u( R: U0 W8 E9 T4 g- CCompression mode : Lossless0 Q1 V( v+ }+ N) E" k5 k
Stream size : 1.51 GiB (10%)
( G6 a/ a- U) M( zLanguage : Spanish
" [" Q4 h9 x, y6 n' A$ gDefault : Yes
) F- l* p! h' u3 ^/ p2 vForced : No  o; L' w' s9 x$ K9 D. d% S0 ^
$ o! f: p% Q+ g! |# Y3 W
Text7 k6 i2 E3 Z* {$ k4 x4 d6 y; s+ t; m
ID : 3
3 Z: F. Y" U, W# EFormat : UTF-8
7 u6 u0 ^9 G  e5 l6 X. R3 J- oCodec ID : S_TEXT/UTF8
- W" u6 N9 ~; U$ fCodec ID/Info : UTF-8 Plain Text
5 F; z' b+ }8 \1 v2 d3 p( N+ @Duration : 1 h 46 min2 V; f3 r- G% s# S
Bit rate : 63 b/s
& W, z7 M4 f4 z; M+ H1 _& M$ ^Count of elements : 1412
; d/ Y; U$ v1 {0 `2 aStream size : 49.5 KiB (0%)
* Z  b! T4 r9 G9 j( n" W( O) V* ^Language : English
1 ^: _4 \8 Y, h) P/ }, ODefault : Yes0 Y8 G8 |8 \. N6 w: A; G0 e
Forced : No
- ]7 r- B' w/ n# @: x8 f
) f& u) k! l0 ]8 n) I2 s& P$ r
( s+ e0 L2 X! ?; s4 R3 z$ e

快遞員. MKV.torrent

65.35 KB, 下載次數: 3

累計簽到︰112 天
連續簽到︰4 天
發表於 2020-1-16 08:53:55 | 顯示全部樓層
VIP精品區,資源無限好賺金任務區,輕松賺金幣
加入VIP,享受高級特權宣傳賺金又升級,超級棒
感謝大大的辛勞分享!我會繼續在WK關注大大的文章!

回復樓主 親!! 現在是淩晨!妳失眠啦?餓啦?通宵加班?還是想WK啦?

 分享同時學會感恩,一句感謝的話語,就是最大的支持!  歡迎交流討論
您需要登錄後才可以回帖 登錄 | 立即注册

本版積分規則

c重要聲明:本論壇是以即時上載言論的方式運作,WK論壇對所有言論的真實性、立場及版權等,不負任何法律責任。而一切言論只代表發佈者個人意見,並非本網站之立場,讀者及用戶務必自行判斷內容之真實性。 由於本論壇受到「即時上載言論」運作方式所規限,故不能完全監察所有言論,若讀者及用戶發現有內容出現「真實性、立場及版權」等問題,請聯絡我們:info@waikeung.net論壇有權刪除任何言論(刪除前或不會作事先警告及通知)| SiteMap[網站地圖]

發表新帖 返回頂部